Fast and Furious 7 2015 HD-TS XVID AC3 HQ Hive-CM8 Direct Download


+ Reply to Thread
Results 1 to 9 of 9

Thread: Fast and Furious 7 2015 HD-TS XVID AC3 HQ Hive-CM8 Direct Download

  1. #1
    Senior Member sandaru123456 is on a distinguished road sandaru123456's Avatar
    Join Date
    Feb 2014
    Posts
    242
    Likes Received
    0 times

    Post Fast and Furious 7 2015 HD-TS XVID AC3 HQ Hive-CM8 Direct Download






    Director: James Wan
    Writers: Chris Morgan, Gary Scott Thompson (characters)
    Stars: Vin Diesel, Paul Walker, Dwayne Johnson
    Genres: Action | Crime | Thriller
    Country: Japan | USA
    Language: English

    General
    Complete name : Fast.and.Furious.7.2015.HD-TS.XVID.AC3.HQ.Hive-CM8.avi
    Format : AVI
    Format/Info : Audio Video Interleave
    File size : 1.76 GiB
    Duration : 2h 8mn
    Overall bit rate : 1 970 Kbps
    Writing application : Nandub v1.0rc2
    Writing library : Nandub build 1853/release


    Video
    ID : 0
    Format : MPEG-4 Visual
    Format profile : Advanced [email protected]
    Format settings, BVOP : 2
    Format settings, QPel : Yes
    Format settings, GMC : No warppoints
    Format settings, Matrix : Default (H.263)
    Muxing mode : Packed bitstream
    Codec ID : XVID
    Codec ID/Hint : XviD
    Duration : 2h 8mn
    Bit rate : 1 704 Kbps
    Width : 720 pixels
    Height : 336 pixels
    Display aspect ratio : 2.143
    Frame rate : 25.000 fps
    Color space : YUV
    Chroma subsampling : 4:2:0
    Bit depth : 8 bits
    Scan type : Progressive
    Compression mode : Lossy
    Bits/(Pixel*Frame) : 0.282
    Stream size : 1.52 GiB (87%)
    Writing library : XviD 1.2.1 (UTC 2008-12-04)


    Audio
    ID : 1
    Format : AC-3
    Format/Info : Audio Coding 3
    Mode extension : CM (complete main)
    Format settings, Endianness : Big
    Codec ID : 2000
    Duration : 2h 8mn
    Bit rate mode : Constant
    Bit rate : 256 Kbps
    Channel(s) : 2 channels
    Channel positions : Front: L R
    Sampling rate : 48.0 KHz
    Bit depth : 16 bits
    Compression mode : Lossy
    Stream size : 234 MiB (13%)
    Alignment : Split accross interleaves
    Interleave, duration : 40 ms (1.00 video frame)
    Interleave, preload duration : 500 ms











    Click Here Download

  2. #2
    Senior Member 1118lakmalkumara will become famous soon enough 1118lakmalkumara will become famous soon enough 1118lakmalkumara's Avatar
    Join Date
    May 2012
    Location
    For Rent
    Posts
    431
    Likes Received
    11 times
    Methanath thiyanawa ona aya ganna okata wada quality eka hodai
    LINK

  3. #3
    Senior Member TharakaMadushan has much to be proud of TharakaMadushan has much to be proud of TharakaMadushan has much to be proud of TharakaMadushan has much to be proud of TharakaMadushan has much to be proud of TharakaMadushan has much to be proud of TharakaMadushan has much to be proud of TharakaMadushan has much to be proud of TharakaMadushan's Avatar
    Join Date
    Jul 2014
    Location
    ආපායේ
    Posts
    1,971
    Likes Received
    0 times

  4. #4
    Senior Member TharakaMadushan has much to be proud of TharakaMadushan has much to be proud of TharakaMadushan has much to be proud of TharakaMadushan has much to be proud of TharakaMadushan has much to be proud of TharakaMadushan has much to be proud of TharakaMadushan has much to be proud of TharakaMadushan has much to be proud of TharakaMadushan's Avatar
    Join Date
    Jul 2014
    Location
    ආපායේ
    Posts
    1,971
    Likes Received
    0 times
    Quote Originally Posted by 1118lakmalkumara View Post
    Methanath thiyanawa ona aya ganna okata wada quality eka hodai
    LINK

  5. #5
    Tech Support janith nilanga has a reputation beyond repute janith nilanga has a reputation beyond repute janith nilanga has a reputation beyond repute janith nilanga has a reputation beyond repute janith nilanga has a reputation beyond repute janith nilanga has a reputation beyond repute janith nilanga has a reputation beyond repute janith nilanga has a reputation beyond repute janith nilanga has a reputation beyond repute janith nilanga has a reputation beyond repute janith nilanga has a reputation beyond repute janith nilanga's Avatar
    Join Date
    Nov 2011
    Location
    Ja-ela
    Posts
    39,414
    Likes Received
    2538 times

  6. #6
    Senior Member Himeshan is on a distinguished road Himeshan's Avatar
    Join Date
    Oct 2013
    Posts
    193
    Likes Received
    0 times
    HD nobalami Bluray avama balami
    onna Facebook vala page ehekin nomile tikets dinagena Savoy eken balanna chance ekak thiyanava
    nomile Tiket machanla nomile

  7. #7
    Senior Member thilinaz has a spectacular aura about thilinaz has a spectacular aura about thilinaz's Avatar
    Join Date
    Mar 2012
    Location
    හරි හමන් තැනක් නැත
    Posts
    782
    Likes Received
    330 times
    ඉවසමි

  8. #8
    Junior Member SAMPATH SANARUWAN is an unknown quantity at this point
    Join Date
    Jul 2013
    Location
    middeniya
    Posts
    1
    Likes Received
    0 times
    furious 7 wenuwen iwasami

  9. #9
    Junior Member nadishana is an unknown quantity at this point
    Join Date
    Apr 2017
    Posts
    1
    Likes Received
    0 times
    furious 7 wenuwen iwasannaba

+ Reply to Thread

Bookmarks

Posting Permissions

  • You may not post new threads
  • You may not post replies
  • You may not post attachments
  • You may not edit your posts